The Omen (2006) 1080p BDRip x264 Dual Audio [Hindi ORG 2.0 +English 5.1]


Rating: 5.4/10
Director: John Moore
Release Date: 6 June 2006
Genre: Horror | Mystery | Thriller
Stars: Liev Schreiber, Julia Stiles, Seamus Davey-Fitzpatrick

Storyline: When the Vatican observatory priest sees the appearance of a comet, the Church is sure that it confirms the eve of the Armageddon. Meanwhile, the USA President’s godson Robert Thorn is informed in the maternity in Rome by Father Spiletto that his wife Katherine has just lost her baby and she had troubles with her uterus and would not have another pregnancy. Spiletto suggests Robert that another just born child that lost his mother could be the substituted for his son, and Robert accepts the child and gives the name of Damien. Robert is promoted to ambassador in London after a tragic accident. When Damien’s nanny commits suicide in his birthday party, a substitute, Mrs. Baylock, comes to work and live with the family. Along the years, Katherine realizes that Damien is evil, while Robert is contacted by Father Brennan, who tells him that Damien is the son of devil. When the priest dies in a bizarre accident, the photographer Keith Jennings shows evidences to Robert that the boy is the…

Download From Here

Link

Pompeii (2014) BDRip 480p x264 Dual Audio [Hindi-Eng]


Pompeii (2014) BDRip 480p x264 Dual Audio [Hindi-Eng]

General
Complete name : Pompeii (2014) BDRip 480p x264 Dual Audio [Hindi-Eng] YsB TeaM SSX.mkv
Format : Matroska
File size : 445 MiB
Duration : 1h 45mn
Overall bit rate : 593 Kbps
Movie name : Pompeii (2014) BDRip 480p x264 Dual Audio [Hindi-Eng] YsB TeaM SSX
DURATION : 01:45:00.416000000

Video
ID : 1
Format : AVC
Duration : 1h 45mn
Bit rate : 400 Kbps
Width : 848 pixels
Height : 352 pixels
Frame rate mode : Constant
Frame rate : 23.976 fps
Stream size : 292 MiB (66%)
Title : YsB TeaM SSX

Audio #1
ID : 2
Format : AC-3
Duration : 1h 45mn
Bit rate : 96.0 Kbps
Channel(s) : 2 channels
Channel positions : Front: L R
Sampling rate : 48.0 KHz
Stream size : 72.1 MiB (16%)
Title : YsB TeaM SSX
Language : Hindi

Audio #2
ID : 3
Format : AC-3
Duration : 1h 45mn
Bit rate : 96.0 Kbps
Channel(s) : 2 channels
Channel positions : Front: L R
Sampling rate : 48.0 KHz
Stream size : 72.1 MiB (16%)
Title : YsB TeaM SSX
Language : English